Info

The Artist


8.0
IMDB: 8.0/10 194,696 votes

Durata: 100 min

Released:

Anno: 20 Jan 2012

Direttore:

Premi: Won 5 Oscars. Another 149 wins & 186 nominations.

Budget: 15000000$

Incassi: 133432856$

Stato: Released

Paese: France, USA, Belgium

Cast:




Hollywood 1927. George Valentin è un notissimo attore del cinema muto. I suoi film avventurosi e romantici attraggono le platee. Un giorno, all’uscita da una prima, una giovane aspirante attrice lo avvicina e si fa fotografare sulla prima pagina di Variety abbracciata a lui. Di lì a poco se la troverà sul set di un film come ballerina. È l’inizio di una carriera tutta in ascesa con il nome di Peppy Miller. Carriera che sarà oggetto di una ulteriore svolta quando il sonoro prenderà il sopravvento e George Valentin verrà rapidamente dimenticato.

Trailer


Upload on Youtube

Info File

Video
ID : 1
Format : HEVC
Format/Info : High Efficiency Video Coding
Format profile : [email protected]@High
Codec ID : V_MPEGH/ISO/HEVC
Duration : 1h 40mn
Bit rate : 1 691 Kbps
Width : 958 pixels
Height : 720 pixels
Display aspect ratio : 4:3
Original display aspect ratio : 4:3
Frame rate mode : Constant
Frame rate : 24.000 fps
Color space : YUV
Chroma subsampling : 4:2:0
Bit depth : 8 bits
Bits/(Pixel*Frame) : 0.102
Stream size : 1.18 GiB (72%)
Writing library : x265 1.9 206-0af296185f7a:[Windows][GCC 5.3.0][64 bit] 8bit
Encoding settings : wpp / ctu=64 / min-cu-size=8 / max-tu-size=32 / tu-intra-depth=3 / tu-inter-depth=3 / me=2 / subme=4 / merange=57 / no-rect / no-amp / max-merge=3 / temporal-mvp / no-early-skip / no-recursion-skip / rdpenalty=0 / no-tskip / no-tskip-fast / strong-intra-smoothing / no-lossless / no-cu-lossless / no-constrained-intra / fast-intra / open-gop / no-temporal-layers / interlace=0 / keyint=250 / min-keyint=24 / scenecut=40 / rc-lookahead=40 / lookahead-slices=0 / bframes=8 / bframe-bias=0 / b-adapt=2 / ref=5 / limit-refs=3 / limit-modes / weightp / weightb / aq-mode=3 / qg-size=32 / aq-strength=2.00 / cbqpoffs=0 / crqpoffs=0 / rd=4 / psy-rd=1.00 / rdoq-level=0 / psy-rdoq=0.00 / no-rd-refine / signhide / deblock=-1:-1 / sao / no-sao-non-deblock / b-pyramid / no-cutree / no-intra-refresh / rc=crf / crf=22.0 / qcomp=0.60 / qpmin=0 / qpmax=51 / qpstep=4 / vbv-maxrate=30000 / vbv-bufsize=30000 / crf-max=0.0 / ipratio=1.40 / pbratio=1.30
Language : English
Default : Yes
Forced : No
Color range : Limited
Matrix coefficients : BT.709

Audio
ID : 2
Format : AC-3
Format/Info : Audio Coding 3
Mode extension : CM (complete main)
Format settings, Endianness : Big
Codec ID : A_AC3
Duration : 1h 40mn
Bit rate mode : Constant
Bit rate : 640 Kbps
Channel(s) : 6 channels
Channel positions : Front: L C R, Side: L R, LFE
Sampling rate : 48.0 KHz
Frame rate : 31.250 fps (1536 spf)
Compression mode : Lossy
Stream size : 458 MiB (27%)
Title : AC3 5.1
Language : Italian
Default : Yes
Forced : No

Menu
00:00:00.000 : en:00:00:00.000
00:09:33.625 : en:00:09:33.625
00:14:59.042 : en:00:14:59.042
00:25:44.917 : en:00:25:44.917
00:32:52.375 : en:00:32:52.375
00:39:35.292 : en:00:39:35.292
00:50:02.500 : en:00:50:02.500
00:55:27.375 : en:00:55:27.375
01:05:27.167 : en:01:05:27.167
01:13:05.625 : en:01:13:05.625
01:25:45.042 : en:01:25:45.042
01:33:42.000 : en:01:33:42.000

Trackers

http://tracker.istole.it:80/
http://tracker.publicbt.com:80/
http://tracker.tntvillage.scambioetico.org:2710/scrape
http://open.demonii.com:1337/scrape
http://tracker.coppersurfer.tk:6969/scrape
http://tracker.openbittorrent.com/scrape
Numerical Analysis | Yo-Yo Ma - Bach: Cello Suite No. 1 in G Major, Prélude (Official Video) MP3 | Rerided: Tokigoe no Derrida Anime